#TITLE:Heart To Heart;
#SUBTITLE:Expi3nze;
#ARTIST:4Minute;
#TITLETRANSLIT:;
#SUBTITLETRANSLIT:;
#ARTISTTRANSLIT:;
#CREDIT:;
#BANNER:bn.png;
#BACKGROUND:bg.png;
#LYRICSPATH:;
#CDTITLE:cdtitle.png;
#MUSIC:Heart To Heart.mp3;
#OFFSET:-0.020;
#SAMPLESTART:59.558;
#SAMPLELENGTH:12.000;
#SELECTABLE:YES;
#BPMS:0.000=130.005,1.000=65.001,2.000=64.999,4.000=65.001,5.000=64.999,7.000=65.001,8.000=64.999,10.000=65.001,11.000=64.999,14.000=65.001,15.000=64.999,17.000=130.005,18.000=129.999,23.000=130.005,24.000=129.999,30.000=130.005,31.000=129.999,37.000=130.005,38.000=129.999,43.000=130.005,44.000=129.999,50.000=130.005,51.000=129.999,56.000=130.005,57.000=129.999,63.000=130.005,64.000=129.999,69.000=130.005,70.000=129.999,75.000=130.005,76.000=129.999,82.000=130.005,83.000=129.999,89.000=130.005,90.000=129.999,96.000=130.005,97.000=129.999,102.000=130.005,103.000=129.999,109.000=130.005,110.000=129.999,115.000=130.005,116.000=129.999,121.000=130.005,122.000=129.999,128.000=130.005,129.000=129.999,134.000=130.005,135.000=129.999,141.000=130.005,142.000=129.999,147.000=130.005,148.000=129.999,154.000=130.005,155.000=129.999,160.000=130.005,161.000=129.999,167.000=130.005,168.000=129.999,173.000=130.005,174.000=129.999,180.000=130.005,181.000=129.999,186.000=130.005,187.000=129.999,195.000=130.005,196.000=129.999,201.000=130.005,202.000=129.999,208.000=130.005,209.000=129.999,214.000=130.005,215.000=129.999,221.000=130.005,222.000=129.999,226.000=130.005,227.000=129.999,233.000=130.005,234.000=129.999,239.000=130.005,240.000=129.999,246.000=130.005,247.000=129.999,252.000=130.005,253.000=129.999,259.000=130.005,260.000=129.999,265.000=130.005,266.000=129.999,272.000=130.005,273.000=129.999,278.000=130.005,279.000=129.999,285.000=130.005,286.000=129.999,291.000=130.005,292.000=129.999,298.000=130.005,299.000=129.999,304.000=130.005,305.000=129.999,311.000=130.005,312.000=129.999,317.000=130.005,318.000=129.999,324.000=130.005;
#STOPS:;
#BGCHANGES:;
// cache tags:
#FIRSTBEAT:1.500;
#LASTBEAT:321.000;
#SONGFILENAME:Songs/Super Dancer Online/Heart To Heart (4Minute)/Heart To Heart.sm;
#HASMUSIC:1;
#HASBANNER:1;
#MUSICLENGTH:157.756;
// end cache tags

//---------------dance-single - ----------------
#NOTES:
     dance-single:
     :
     Hard:
     23:
     1.000,1.000,1.000,0.070,0.501,724.000,350.000,11.000,0.000,116.000:
0000
0000
0000
0001
1100
1100
0001
1100
,
1100
0001
1000
0011
0011
1000
0011
0011
,
1000
0011
1001
0001
1100
1100
0001
1100
,
1100
0001
1100
1100
0001
1100
1100
0001
,
1100
1100
0001
0000
1100
1100
0001
0000
,
1000
0011
0011
0000
1000
1100
1001
0001
,
1000
0001
1100
1100
0001
1000
0011
0011
,
1000
1001
1001
0000
1001
1001
0001
0001
,
1000
0011
0011
1000
1010
1001
0001
1000
,
1100
1100
0001
0000
0011
0011
1000
0011
,
0011
1000
0001
0000
0011
0000
1100
1100
,
0001
1100
1100
0001
1000
0000
0010
0000
,
1110
0000
0011
0011
1000
0001
1000
1100
,
1011
0000
1000
0100
0010
0001
1100
0000
1101
0000
0100
0000
0001
0000
0011
0000
,
1101
0001
1000
1010
1011
0010
1000
1100
,
1011
0000
0001
0010
0001
0001
1000
0000
1101
0000
0100
0000
0001
0000
0011
0000
,
1101
0100
0001
0011
1101
0001
1000
1100
,
1011
0000
1000
0100
1000
0000
0001
0000
1100
0000
1100
0000
0001
0000
1000
0000
,
1011
0000
1000
0000
0010
0000
0000
0000
0111
0000
0000
0000
1100
0000
0001
0001
,
0110
0000
1100
0001
0001
0000
0100
0000
1110
0000
0100
0000
0001
0000
0001
0000
,
1100
1100
0002
0000
1100
0000
1100
0000
,
0010
1010
0010
0000
1000
0010
0000
2000
,
0000
0000
3000
0020
0000
0000
0000
0000
0000
0000
0000
0000
0000
0000
0000
0000
0000
0030
0000
0000
0000
0000
0000
0000
,
0110
0110
0010
0000
1000
0010
0000
2000
,
0000
0000
0000
0000
3000
0003
2111
0000
0000
0000
0000
0000
0110
0000
0000
0110
0000
0000
0100
0000
0000
0000
0000
0000
,
0011
0000
0000
0000
0100
0110
0111
0001
0110
0110
0011
0011
0100
0110
0011
0111
,
0010
0100
0011
0011
0001
0110
0110
0111
0011
0100
0110
0011
0100
0011
0110
0011
,
0011
0000
0100
0000
0110
0000
0111
0000
0100
0010
0100
0001
0010
0100
0001
0010
0100
0001
0010
0001
0100
0010
0001
0100
0010
0001
0010
0100
0001
0010
0100
0000
,
3011
0000
0001
0011
1011
0000
0000
0000
1111
0000
0000
0000
0010
0000
0110
0000
,
1111
0000
0010
0100
0010
0000
0110
0000
1111
0000
0001
0001
1100
0000
1100
0000
,
0111
0000
0001
1000
1000
0000
1100
0000
1011
0000
1000
0001
0001
0000
1100
0000
,
1101
0000
1000
1000
0100
1000
0001
0000
0111
0000
1000
1000
0011
0000
0011
0000
,
1000
0000
0010
0100
0010
0000
0110
0000
1111
0000
0010
0100
0010
0000
0110
0000
,
1111
0000
0010
0100
0010
0000
1000
1000
0011
0000
0011
0000
1000
1000
0011
0000
,
1110
0000
0011
1000
1000
0010
0010
0000
0111
0000
0010
0100
0010
0000
1100
0000
,
1101
0000
0001
0001
0010
0000
0001
0000
1101
0000
1100
0001
0001
0000
1100
0000
,
1100
0000
0001
0011
1011
0000
0000
0000
1111
0000
0000
0000
0010
0000
0110
0000
,
1111
0000
0010
0100
0010
0000
0110
0000
1111
0000
0001
0001
1100
0000
1100
0000
,
0111
0000
0001
1000
1000
0000
1100
0000
1011
0000
1000
0001
0001
0000
1100
0000
,
1101
0000
1000
1000
0100
1000
0001
0000
0111
0000
1000
1000
0011
0000
0011
0000
,
1000
0000
0010
0100
0010
0000
0110
0000
1111
0000
0010
0100
0010
0000
0110
0000
,
1111
0000
0010
0100
0010
0000
1000
1000
0011
0000
0011
0000
1000
1000
0011
0000
,
1110
0000
0011
1000
1000
0010
0010
0000
0111
0000
0010
0100
0010
0000
1100
0000
,
1101
0000
0001
0001
0010
0000
0001
0000
1101
0000
1100
0001
0001
0000
1100
0000
,
1100
0000
0000
0000
0000
0000
0001
0000
0000
0011
0000
0000
0002
0000
0000
0000
0000
0000
0000
0000
0000
0000
0000
0000
0000
0000
0000
0000
0000
0000
0000
0000
0000
0000
0000
0000
0000
0000
0000
0000
0000
0000
0000
0000
0000
0000
0003
0000
,
1100
1100
0001
1100
1100
0001
1001
1001
,
0001
1000
0011
0011
1000
0011
0011
0001
,
1010
1001
0010
1000
0011
0011
1000
0011
,
0011
1000
0011
0011
0001
1000
1001
1001
,
0001
1000
0011
0011
1000
0011
0011
1000
,
1010
1001
0010
1000
0011
0011
1000
0011
,
0011
1000
1001
1001
0001
1000
0011
0011
,
1000
0011
0211
1000
0011
0011
1000
0011
,
0011
1000
0011
0011
1000
0011
0311
1000
,
0011
1001
1020
0001
1100
1100
0001
1100
,
1100
0001
1031
1001
1000
0001
1001
1001
,
1000
0000
0001
0000
1100
1100
0011
0011
1100
0110
0011
1100
1100
0011
1100
1100
,
0011
0110
1100
0011
0011
1100
1001
1001
0011
0110
0011
1100
1100
0011
0011
1100
,
0011
0011
1100
1001
1001
0011
0110
0011
1100
1100
0011
0011
1100
0110
1100
0011
,
0011
0000
1001
0000
1001
0000
1100
0000
0001
0010
1000
0001
0010
1000
0001
0010
1000
0001
0010
1000
0001
0010
1000
0001
0010
1000
0001
0010
1000
0001
0010
1000
,
0001
0010
0000
0001
0000
0000
0000
0000
2002
0000
0000
0000
0000
0000
0000
0000
0000
0000
0000
0000
0000
0000
0000
0000
0000
0000
0000
0000
0000
0000
0000
0000
,
0000
0000
0000
0000
0000
0000
0000
3000
,
0013
0000
0001
0011
1011
0000
0000
0000
1111
0000
0000
0000
0010
0000
0110
0000
,
1111
0000
0010
0100
0010
0000
0110
0000
1111
0000
0001
0001
1100
0000
1100
0000
,
0111
0000
0001
1000
1000
0000
1100
0000
1011
0000
1000
0001
0001
0000
1100
0000
,
1101
0000
1000
1000
0100
1000
0001
0000
0111
0000
1000
1000
0011
0000
0011
0000
,
1000
0000
0010
0100
0010
0000
0110
0000
1111
0000
0010
0100
0010
0000
0110
0000
,
1111
0000
0010
0100
0010
0000
1000
1000
0011
0000
0011
0000
1000
1000
0011
0000
,
1110
0000
0011
1000
1000
0010
0010
0000
0111
0000
0010
0100
0010
0000
1100
0000
,
1101
0000
0001
0001
0010
0000
0001
0000
1101
0000
1100
0001
0001
0000
1100
0000
,
1100
0000
0001
0011
1011
0000
0000
0000
1111
0000
0000
0000
0010
0000
0110
0000
,
1111
0000
0010
0100
0010
0000
0110
0000
1111
0000
0001
0001
1100
0000
1100
0000
,
0111
0000
0001
1000
1000
0000
1100
0000
1011
0000
1000
0001
0001
0000
1100
0000
,
1101
0000
1000
1000
0100
1000
0001
0000
0111
0000
1000
1000
0011
0000
0011
0000
,
1000
0000
0010
0100
0010
0000
0110
0000
1111
0000
0010
0100
0010
0000
0110
0000
,
1111
0000
0010
0100
0010
0000
1000
1000
0011
0000
0011
0000
1000
1000
0011
0000
,
1110
0000
0011
1000
1000
0010
0010
0000
0111
0000
0010
0100
0010
0000
1100
0000
,
1101
0000
0001
0001
0010
0000
0001
0000
1101
0000
1100
0001
0001
0000
1100
0000
,
1100
0000
0001
0011
0002
0000
0000
0000
0000
0000
0000
0000
0000
0000
0000
0000
,
0000
0000
0000
0000
,
0000
0003
0000
0000
,
0000
0000
0000
0000
;
